Skip to main content

Toubab Krewe Live at Ram's Head Onstage on 2007-11-28

Audio Preview

etree
Toubab Krewe Live at Ram's Head Onstage on 2007-11-28




Toubab Krewe
November 28, 2007
Ram's Head Onstage
Annapolis MD

*** THIS IS A 24-BIT FILESET NOT INTENDED FOR AUDIO CD ***

SOURCE: studio projects LSD2 (blumlein) > busman t-mod edirol r4 (24/96)
PROCESSING: soundforge 8.0 (tracking, fades) > flac 1.2.0a

SET ONE
01
02
03
04
05
06
07
08

SET TWO
01
02
03
04
05
06
07
08
09
10
11


Collection ToubabKrewe
Band/Artist Toubab Krewe
Venue Ram's Head Onstage
Location Annapolis MD

Source studio projects LSD2 (blumlein) > busman t-mod edirol r4 (24/96)
Lineage soundforge 8.0 (tracking, fades) > flac 1.2.0a
Taped by Peter W. King
Transferred by Peter W. King

Notes

length expanded size cdr WAVE problems fmt ratio filename
6:30.443 224895020 B cxx -- ---xx flac 0.6389 toubabkrewe2007-11-28_set1_lsd2_t01.flac
7:16.784 251587628 B cxx -- ---xx flac 0.6081 toubabkrewe2007-11-28_set1_lsd2_t02.flac
10:46.096 372151340 B cxx -- ---xx flac 0.6058 toubabkrewe2007-11-28_set1_lsd2_t03.flac
8:34.795 296521772 B cxx -- ---xx flac 0.6025 toubabkrewe2007-11-28_set1_lsd2_t04.flac
8:02.411 277868588 B cxx -- ---xx flac 0.5380 toubabkrewe2007-11-28_set1_lsd2_t05.flac
8:38.955 298917932 B cxx -- ---xx flac 0.5983 toubabkrewe2007-11-28_set1_lsd2_t06.flac
7:28.875 258551852 B cxx -- ---xx flac 0.6220 toubabkrewe2007-11-28_set1_lsd2_t07.flac
8:44.173 301923638 B cxx -- ---xx flac 0.6048 toubabkrewe2007-11-28_set1_lsd2_t08.flac
2:14.699 77586476 B cxx -- ---xx flac 0.4978 toubabkrewe2007-11-28_set2_lsd2_t01.flac
2:03.947 71393324 B cxx -- ---xx flac 0.4855 toubabkrewe2007-11-28_set2_lsd2_t02.flac
4:06.165 141791276 B cxx -- ---xx flac 0.5921 toubabkrewe2007-11-28_set2_lsd2_t03.flac
9:04.747 313774124 B cxx -- ---xx flac 0.5798 toubabkrewe2007-11-28_set2_lsd2_t04.flac
5:23.499 186335276 B cxx -- ---xx flac 0.6030 toubabkrewe2007-11-28_set2_lsd2_t05.flac
6:10.091 213172268 B cxx -- ---xx flac 0.5922 toubabkrewe2007-11-28_set2_lsd2_t06.flac
7:20.555 253759532 B cxx -- ---xx flac 0.5825 toubabkrewe2007-11-28_set2_lsd2_t07.flac
5:22.155 185561132 B cxx -- ---xx flac 0.6079 toubabkrewe2007-11-28_set2_lsd2_t08.flac
6:54.891 238977068 B cxx -- ---xx flac 0.5893 toubabkrewe2007-11-28_set2_lsd2_t09.flac
11:07.072 384233516 B cxx -- ---xx flac 0.5999 toubabkrewe2007-11-28_set2_lsd2_t10.flac
8:04.245 278925356 B cxx -- ---xx flac 0.6150 toubabkrewe2007-11-28_set2_lsd2_t11.flac
133:54.594 4627927118 B 0.5950 (19 files)

comment
Reviews

There are no reviews yet. Be the first one to write a review.
DOWNLOAD OPTIONS
In Collection
Toubab Krewe
In Collection
Live Music Archive
Uploaded by
peterwking
on 8/5/2013
Views
71
SIMILAR ITEMS (based on metadata)
eye
Title
Date Archived
Creator
Toubab Krewe
by Toubab Krewe
etree
eye 36
favorite 0
comment 0
Source: mbho 603a/ka100dk (jecklin) > sound devices mp2 > busman t-mod edirol r4 (24/96)
Toubab Krewe
by Toubab Krewe
etree
eye 34
favorite 0
comment 0
Source: mbho 603a/ka100dk (jecklin) > sound devices mp2 > busman t-mod edirol r4 (24/96)
Toubab Krewe
by Toubab Krewe
etree
eye 199
favorite 1
comment 0
Source: LSD2 (blumlein) > mp2 > busman t-mod edirol r4 (24/96)
Toubab Krewe
by Toubab Krewe
etree
eye 5,526
favorite 2
comment 1
favoritefavoritefavoritefavoritefavorite ( 1 reviews )
Source: LSD2 (blumlein) > mp2 > busman t-mod edirol r4 (24/96)
Toubab Krewe
by Toubab Krewe
etree
eye 1,500
favorite 0
comment 0
Source: Matrix: SBD (L/R Channels delayed seperately via 2 Behringer Shark DSP110's) + AKG 483(ORTF/DFC/FOB)>Oade Mod UA-5>USB>Soundforge 8.0 (44.1KHz)
Toubab Krewe
by Toubab Krewe
etree
eye 119
favorite 2
comment 0
Source: Post Production Matrix [onstage Schoeps mk4/mk8 (ms)> kc5> cmc6xt + SBD> xlr> Edirol R4 (24/44.1)]
Toubab Krewe
by Toubab Krewe
etree
eye 855
favorite 0
comment 0
Source: Schoeps MK4(DIN)>kcy>Sonosax SX-M2/LS>Hydra Silver XLR Interconnects >Sound Devices 722(24/96)
Toubab Krewe
by Toubab Krewe
etree
eye 5,057
favorite 3
comment 2
favoritefavoritefavoritefavoritefavorite ( 2 reviews )
Source: Matrix: SBD (L/R Channels delayed seperately via 2 Behringer Shark DSP110's) + AKG 483(ORTF/DFC/FOB)>Oade Mod UA-5>USB>Soundforge 8.0 (44.1KHz)
Toubab Krewe
by Toubab Krewe
etree
eye 87
favorite 0
comment 0
Source: mbho603a/ka500hn (hypercardioid, DIN) > mp2 > busman t-mod edirol r4 (24/96)
Toubab Krewe
by Toubab Krewe
etree
eye 74
favorite 0
comment 0
Source: mbho 603a/ka500hn (hypercardioid, DIN) > mp2 > busman t-mod edirol r4 (24/96)